<?xml version="1.0" standalone="no"?>
<!DOCTYPE svg PUBLIC "-//W3C//DTD SVG 1.1//EN" "http://www.w3.org/Graphics/SVG/1.1/DTD/svg11.dtd">
<svg xmlns="http://www.w3.org/2000/svg">
<defs >
<font id="Urbanist" horiz-adv-x="1076" ><font-face
    font-family="Urbanist"
    units-per-em="2000"
    panose-1="2 11 10 4 4 2 0 0 2 3"
    ascent="1900"
    descent="-500"
    alphabetic="0" />
<glyph unicode=" " horiz-adv-x="480" />
<glyph unicode="!" horiz-adv-x="359" d="M99 420V1400H222V420H99ZM161 -26Q127 -26 104 -3T80 55Q80 88 103 111T161 134Q193 134 216 111T239 55Q239 21 216 -2T161 -26Z" />
<glyph unicode="&quot;" horiz-adv-x="519" d="M73 878V1400H180V878H73ZM339 878V1400H446V878H339Z" />
<glyph unicode="#" horiz-adv-x="1511" d="M1395 929H1193L1070 473H1273L1237 337H1035L944 0H804L895 337H423L332 0H192L283 337H80L117 473H318L441 929H238L275 1064H477L567 1400H707L617 1064H1090L1179 1400H1319L1230 1064H1431L1395 929ZM930 473L1053
929H581L458 473H930Z" />
<glyph unicode="$" horiz-adv-x="1180" d="M589 1280Q494 1281 412 1249T278 1159T227 1024Q227 934 274 886T404 813T589 770Q723 747 838 699T1023 570T1093 371Q1093 259 1032 174T868 38T644 -23V-224H537V-23Q434 -16 341 20T179 119T80 264L211 313Q233
251 291 207T428 138T589 114Q685 114 768 146T902 235T953 371Q953 450 900 501T764 581T589 627Q446 652 333 695T153 816T87 1024Q87 1136 148 1221T312 1357T537 1417V1624H644V1417Q743 1410 835 1374T997 1277T1100 1129L967 1081Q945 1144 887 1188T750
1256T589 1280Z" />
<glyph unicode="%" horiz-adv-x="1282" d="M155 0L963 1400H1125L317 0H155ZM319 853Q253 853 199 885T113 971T80 1092Q80 1160 112 1214T199 1300T319 1332Q385 1332 439 1300T525 1213T558 1092Q558 1025 526 971T439 885T319 853ZM319 960Q375 960 413 998T451
1092Q451 1148 413 1186T319 1225Q264 1225 226 1187T187 1092Q187 1037 225 999T319 960ZM963 67Q897 67 843 100T756 188T723 307Q723 374 756 428T843 515T963 547Q1030 547 1084 514T1170 427T1202 307Q1202 241 1170 187T1084 100T963 67ZM963 174Q1017 174
1056 213T1095 307Q1095 362 1056 401T963 440Q908 440 869 401T829 307Q829 252 868 213T963 174Z" />
<glyph unicode="&amp;" horiz-adv-x="1417" d="M485 -26Q366 -26 275 31T132 182T80 381Q80 446 93 494T140 589T234 698T387 853Q332 909 297 947T241 1015T213 1077T205 1151Q205 1230 243 1294T346 1395T485 1433Q563 1433 627 1395T729 1294T767 1151Q767
1108 759 1076T730 1012T674 944T585 853L959 479L1179 699V501L1056 378L1337 99L1238 0L959 278Q865 184 803 125T693 32T599 -13T485 -26ZM485 114Q535 114 570 125T641 164T728 245T860 379L485 754Q402 670 350 618T270 531T232 461T221 378Q221 304 257 244T353
149T485 114ZM485 936Q550 1000 583 1033T628 1090T640 1153Q640 1219 594 1263T485 1307Q421 1307 377 1261T332 1153Q332 1115 345 1090T391 1031T485 936Z" />
<glyph unicode="&apos;" horiz-adv-x="253" d="M73 878V1400H180V878H73Z" />
<glyph unicode="(" horiz-adv-x="643" d="M403 -112Q302 -17 240 103T149 360T120 644Q120 724 131 812T166 986T223 1152T302 1295T403 1400H543Q492 1351 450 1287T373 1146T315 987T276 817T260 644Q264 487 299 349T397 96T543 -112H403Z" />
<glyph unicode=")" horiz-adv-x="643" d="M100 -112Q184 -20 246 95T343 349T383 644Q381 730 367 816T329 986T270 1146T194 1286T100 1400H240Q296 1359 340 1295T419 1152T477 987T511 812T523 644Q523 498 495 361T404 103T240 -112H100Z" />
<glyph unicode="*" horiz-adv-x="705" d="M212 853L126 916L250 1087L50 1152L82 1253L284 1189V1400H391V1189L592 1253L625 1152L423 1087L548 916L461 853L337 1025L212 853Z" />
<glyph unicode="+" horiz-adv-x="1160" d="M510 100V530H80V670H510V1100H650V670H1080V530H650V100H510Z" />
<glyph unicode="," horiz-adv-x="402" d="M80 -112L142 226H282L173 -112H80Z" />
<glyph unicode="-" horiz-adv-x="880" d="M120 670H760V530H120V670Z" />
<glyph unicode="." horiz-adv-x="360" d="M159 -26Q126 -26 103 -3T80 55Q80 87 103 110T159 134Q193 134 216 111T240 55Q240 21 217 -2T159 -26Z" />
<glyph unicode="/" horiz-adv-x="705" d="M625 1400L220 -112H80L485 1400H625Z" />
<glyph unicode="0" horiz-adv-x="1191" d="M597 -26Q471 -26 372 30T203 187T97 418T60 700Q60 850 96 982T203 1213T372 1369T597 1426Q722 1426 821 1370T989 1214T1094 982T1131 700Q1131 550 1095 419T989 187T821 31T597 -26ZM597 114Q729 114 818 195T953
409T998 700Q998 866 952 998T816 1208T597 1286Q495 1286 419 1239T293 1110T218 923T193 700Q193 542 239 409T375 195T597 114Z" />
<glyph unicode="1" horiz-adv-x="530" d="M230 0V1260H80L120 1400H370V0H230Z" />
<glyph unicode="2" horiz-adv-x="1089" d="M80 0V124Q162 200 260 290T454 477T631 668T759 847T808 997Q808 1076 770 1141T667 1246T523 1286Q444 1286 379 1247T274 1142T235 997H95Q95 1117 153 1214T309 1368T523 1426Q640 1426 736 1368T890 1213T948 997Q948
926 911 842T809 667T665 484T498 305T329 140H969V0H80Z" />
<glyph unicode="3" horiz-adv-x="983" d="M491 -26Q363 -26 266 30T115 182T60 392H200Q200 316 235 253T336 152T491 114Q567 114 633 151T741 252T783 392Q783 487 735 550T603 645T411 677V793Q560 793 650 856T741 1043Q741 1110 705 1165T610 1253T484 1287Q417
1287 356 1254T256 1165T217 1043H77Q77 1122 110 1191T200 1314T330 1397T483 1427Q588 1427 678 1375T825 1236T881 1043Q881 940 828 857T685 740Q763 714 816 662T896 540T923 392Q923 277 863 182T705 31T491 -26Z" />
<glyph unicode="4" horiz-adv-x="1091" d="M684 0V393H80V535L648 1400H824V533H971V393H824V0H684ZM246 535L684 533L681 1200L246 535Z" />
<glyph unicode="5" horiz-adv-x="1107" d="M529 -26Q401 -26 297 36T131 202T70 432H210Q210 345 253 273T368 157T529 114Q616 114 688 157T803 272T847 432Q847 520 806 592T689 708T509 752H169L301 1400H956V1260H414L341 892L504 891Q647 889 755 830T925
669T987 432Q987 338 952 255T853 109T707 10T529 -26Z" />
<glyph unicode="6" horiz-adv-x="1077" d="M532 -26Q400 -26 291 39T116 215T50 458Q50 535 68 589T121 711L518 1400H681L390 896Q478 930 567 927T737 887T881 789T980 642T1017 458Q1017 358 979 271T875 117T720 12T532 -26ZM532 114Q632 114 710 162T832
290T877 459Q877 553 831 630T707 754T534 801Q436 801 358 753T235 628T190 459Q190 361 237 283T363 160T532 114Z" />
<glyph unicode="7" horiz-adv-x="1069" d="M141 0L867 1260H40V1400H1029V1260L301 0H141Z" />
<glyph unicode="8" horiz-adv-x="1053" d="M526 -26Q403 -26 302 30T140 180T80 389Q80 501 142 593T303 737Q221 784 168 865T115 1045Q115 1150 170 1236T319 1374T526 1426Q639 1426 732 1375T881 1237T937 1045Q937 947 885 866T749 737Q850 686 911 594T973
389Q973 275 913 181T751 30T526 -26ZM526 114Q609 114 676 151T783 250T823 389Q823 465 783 527T676 626T526 663Q445 663 378 626T270 527T229 389Q229 313 269 251T377 151T526 114ZM526 803Q599 803 658 835T752 923T788 1045Q788 1112 753 1166T658 1253T526
1286Q454 1286 395 1254T300 1167T264 1045Q264 978 299 923T394 836T526 803Z" />
<glyph unicode="9" horiz-adv-x="1053" d="M352 0L661 535Q555 495 449 510T255 586T114 742T60 958Q60 1054 96 1139T197 1288T345 1389T527 1426Q655 1426 760 1363T929 1193T993 958Q993 885 976 833T923 715L513 0H352ZM525 630Q620 630 694 675T812 796T855
957Q855 1051 810 1125T689 1243T527 1287Q431 1287 357 1241T240 1120T197 957Q197 867 241 793T359 674T525 630Z" />
<glyph unicode=":" horiz-adv-x="360" d="M159 840Q126 840 103 863T80 921Q80 953 103 976T159 1000Q193 1000 216 977T240 921Q240 887 217 864T159 840ZM159 -26Q126 -26 103 -3T80 55Q80 87 103 110T159 134Q193 134 216 111T240 55Q240 21 217 -2T159 -26Z" />
<glyph unicode=";" horiz-adv-x="410" d="M80 -112L142 226H282L173 -112H80ZM211 840Q177 840 154 863T130 919Q130 953 153 976T211 1000Q243 1000 266 977T290 919Q290 886 267 863T211 840Z" />
<glyph unicode="&lt;" horiz-adv-x="1160" d="M1080 200L80 484V714L1080 1000V853L187 600L1080 345V200Z" />
<glyph unicode="=" horiz-adv-x="1160" d="M80 328V468H1080V328H80ZM80 732V872H1080V732H80Z" />
<glyph unicode="&gt;" horiz-adv-x="1160" d="M80 204V349L973 600L80 849V996L1080 714V484L80 204Z" />
<glyph unicode="?" horiz-adv-x="1003" d="M425 481Q425 580 474 663T611 794Q673 826 708 888T743 1026Q743 1099 708 1158T613 1252T481 1287Q409 1287 350 1252T255 1158T220 1026H80Q80 1137 134 1228T279 1373T481 1427Q592 1427 683 1373T829 1228T883 1026Q883
913 828 818T677 670Q625 642 595 592T565 481H425ZM491 -26Q458 -26 435 -2T411 55Q411 88 434 111T491 134Q524 134 547 111T571 55Q571 22 548 -2T491 -26Z" />
<glyph unicode="@" horiz-adv-x="1731" d="M866 -186Q703 -186 561 -132T310 20T141 254T80 551Q80 713 141 855T310 1106T560 1275T866 1336Q1030 1336 1172 1275T1422 1105T1590 855T1651 551Q1651 469 1631 387T1571 238T1476 130T1346 89Q1288 89 1233 115T1140
188T1098 291Q1057 228 990 191T835 153Q726 153 636 206T492 350T438 551Q438 661 491 751T635 894T835 948Q921 948 992 912T1103 814V928L1216 911V341Q1216 293 1254 261T1339 229Q1399 229 1437 279T1493 404T1511 551Q1511 685 1461 802T1321 1007T1116 1146T866
1196Q733 1196 616 1146T410 1008T271 802T220 551Q220 417 270 308T409 119T615 -3T866 -46V-186ZM844 266Q923 266 980 309T1068 420T1099 563Q1099 634 1071 696T985 796T844 835Q765 835 701 797T598 695T559 551Q559 471 598 407T702 304T844 266Z" />
<glyph unicode="A" horiz-adv-x="1353" d="M589 1400H763L1273 0H1124L1015 300H338L229 0H80L589 1400ZM389 440H963L676 1228L389 440Z" />
<glyph unicode="B" horiz-adv-x="1115" d="M120 0V1400H593Q695 1400 778 1359T911 1238T961 1045Q961 981 938 923T878 825T798 772Q860 756 905 717T979 624T1021 511T1035 395Q1035 277 984 188T846 50T655 0H120ZM260 125H644Q717 125 776 163T871 267T907
416Q907 490 872 555T777 661T644 702H260V125ZM260 825H581Q680 825 750 882T821 1046Q821 1162 751 1218T581 1275H260V825Z" />
<glyph unicode="C" horiz-adv-x="1418" d="M768 -26Q626 -26 501 30T282 186T134 418T80 700Q80 850 133 982T281 1213T501 1369T768 1426Q938 1426 1081 1347T1318 1137L1194 1070Q1120 1169 1007 1227T768 1286Q653 1286 554 1240T379 1112T262 925T220 700Q220
579 262 473T380 286T555 160T768 114Q898 114 1009 173T1194 329L1318 262Q1224 131 1081 53T768 -26Z" />
<glyph unicode="D" horiz-adv-x="1343" d="M120 0V1400H583Q728 1400 855 1346T1078 1195T1228 972T1283 700Q1283 555 1229 429T1078 206T855 55T583 0H120ZM260 140H583Q699 140 800 183T979 304T1099 482T1143 700Q1143 816 1100 917T979 1096T800 1216T583
1260H260V140Z" />
<glyph unicode="E" horiz-adv-x="1072" d="M120 0V1400H972V1260H260V820H849V680H260V140H972V0H120Z" />
<glyph unicode="F" horiz-adv-x="959" d="M120 0V1400H939V1260H260V820H843V680H260V0H120Z" />
<glyph unicode="G" horiz-adv-x="1536" d="M769 -26Q625 -26 500 30T280 187T133 419T80 701Q80 854 135 986T286 1216T506 1370T771 1425Q932 1425 1075 1350T1319 1137L1194 1069Q1114 1174 1002 1230T770 1286Q657 1286 558 1241T382 1114T263 927T220 699Q220
578 263 472T381 286T557 160T771 114Q865 114 949 146T1104 238T1222 376T1293 548H915V675H1456Q1453 530 1398 403T1249 180T1032 29T769 -26Z" />
<glyph unicode="H" horiz-adv-x="1255" d="M995 1400H1135V0H995V680H260V0H120V1400H260V820H995V1400Z" />
<glyph unicode="I" horiz-adv-x="440" d="M150 0V1400H290V0H150Z" />
<glyph unicode="J" horiz-adv-x="803" d="M290 -26Q222 -26 158 -4T40 65L129 173Q161 146 202 130T290 114Q360 114 417 151T508 249T543 379V1400H683V379Q683 271 630 179T488 31T290 -26Z" />
<glyph unicode="K" horiz-adv-x="1066" d="M1019 0H838L379 629L260 486V0H120V1400H260V704L843 1400H1026L471 739L1019 0Z" />
<glyph unicode="L" horiz-adv-x="1003" d="M120 0V1400H260V140H903V0H120Z" />
<glyph unicode="M" horiz-adv-x="1769" d="M120 0L391 1400H493L885 370L1275 1400H1377L1649 0H1506L1299 1071L929 92H839L469 1071L262 0H120Z" />
<glyph unicode="N" horiz-adv-x="1271" d="M120 0V1400H272L1011 253V1400H1151V0H1000L260 1147V0H120Z" />
<glyph unicode="O" horiz-adv-x="1540" d="M770 -26Q628 -26 503 30T283 187T134 418T80 700Q80 850 134 981T283 1213T503 1369T770 1426Q913 1426 1038 1370T1258 1213T1406 982T1460 700Q1460 550 1407 419T1258 187T1038 31T770 -26ZM770 114Q885 114 984
160T1159 288T1277 475T1320 700Q1320 820 1277 926T1159 1113T984 1240T770 1286Q655 1286 556 1240T381 1112T263 925T220 700Q220 579 263 473T381 286T556 160T770 114Z" />
<glyph unicode="P" horiz-adv-x="1047" d="M120 0V1400H568Q680 1400 770 1346T913 1199T967 991Q967 875 913 782T768 635T568 581H260V0H120ZM260 721H557Q631 721 692 757T790 856T827 998Q827 1077 791 1139T693 1238T557 1275H260V721Z" />
<glyph unicode="Q" horiz-adv-x="1553" d="M1372 -24L1205 143Q1117 65 1006 21T770 -23Q627 -23 502 33T282 189T134 421T80 703Q80 853 133 984T282 1216T502 1372T770 1429Q913 1429 1037 1373T1257 1216T1405 985T1459 703Q1459 571 1417 454T1301 243L1471
75L1372 -24ZM770 117Q861 117 948 150T1103 244L896 451L995 551L1198 347Q1257 422 1288 514T1319 703Q1319 824 1276 930T1158 1117T983 1243T770 1289Q655 1289 556 1243T381 1115T263 928T220 703Q220 582 263 476T382 289T557 163T770 117Z" />
<glyph unicode="R" horiz-adv-x="1115" d="M120 0V1400H595Q707 1400 797 1346T940 1199T993 991Q993 888 951 804T837 665T673 592L1015 0H853L516 581H260V0H120ZM260 721H583Q657 721 718 757T816 856T853 998Q853 1077 817 1139T719 1238T583 1275H260V721Z" />
<glyph unicode="S" horiz-adv-x="1220" d="M609 -26Q497 -26 393 9T210 109T100 264L231 313Q253 251 311 207T448 138T609 114Q705 114 788 146T922 235T973 371Q973 450 920 501T784 581T609 627Q466 652 353 695T173 816T107 1024Q107 1145 177 1234T361 1372T609
1421Q718 1421 822 1387T1005 1288T1120 1129L987 1081Q965 1144 907 1188T770 1256T609 1280Q514 1281 432 1249T298 1159T247 1024Q247 934 294 886T424 813T609 770Q743 747 858 699T1043 570T1113 371Q1113 251 1043 162T859 23T609 -26Z" />
<glyph unicode="T" horiz-adv-x="1259" d="M1179 1400V1260H699V0H559V1260H80V1400H1179Z" />
<glyph unicode="U" horiz-adv-x="1326" d="M663 -26Q495 -26 373 56T186 276T120 584V1400H260V584Q260 456 307 349T444 178T663 114Q795 114 884 178T1020 350T1066 584V1400H1206V584Q1206 457 1169 347T1061 152T890 21T663 -26Z" />
<glyph unicode="V" horiz-adv-x="1280" d="M555 0L47 1400H195L639 176L1085 1400H1233L724 0H555Z" />
<glyph unicode="W" horiz-adv-x="1688" d="M405 0L47 1400H191L487 241L782 1400H906L1202 241L1497 1400H1641L1285 0H1119L844 1075L569 0H405Z" />
<glyph unicode="X" horiz-adv-x="1319" d="M60 0L573 704L66 1400H239L659 822L1080 1400H1253L747 704L1259 0H1085L659 584L235 0H60Z" />
<glyph unicode="Y" horiz-adv-x="1203" d="M978 1400H1143L671 634V0H531V634L60 1400H225L601 787L978 1400Z" />
<glyph unicode="Z" horiz-adv-x="1292" d="M80 0V140L1025 1260H80V1400H1212V1260L267 140H1212V0H80Z" />
<glyph unicode="[" horiz-adv-x="539" d="M439 28V-112H120V1400H439V1260H260V28H439Z" />
<glyph unicode="\" horiz-adv-x="705" d="M485 -112L80 1400H220L625 -112H485Z" />
<glyph unicode="]" horiz-adv-x="539" d="M100 -112V28H279V1260H100V1400H419V-112H100Z" />
<glyph unicode="^" horiz-adv-x="785" d="M80 1000L316 1650H469L705 1000H556L393 1451L228 1000H80Z" />
<glyph unicode="_" horiz-adv-x="1240" d="M120 28H1120V-112H120V28Z" />
<glyph unicode="`" horiz-adv-x="753" d="M240 1398H380L460 1110H367L240 1398Z" />
<glyph unicode="a" horiz-adv-x="1162" d="M942 1000H1082V0H942L937 186Q888 91 800 33T590 -26Q480 -26 384 15T215 130T101 299T60 505Q60 613 100 708T212 875T378 987T581 1028Q706 1028 799 969T947 813L942 1000ZM587 110Q694 110 771 162T889 304T931
500Q931 610 889 698T770 839T587 891Q481 891 394 839T255 697T203 500Q203 391 256 303T396 162T587 110Z" />
<glyph unicode="b" horiz-adv-x="1203" d="M616 1028Q762 1028 881 957T1072 767T1143 501Q1143 392 1102 297T989 129T821 15T616 -26Q492 -26 402 33T260 187V0H120V1500H260V815Q312 910 402 969T616 1028ZM615 111Q722 111 809 163T948 305T1000 501Q1000
611 947 699T807 840T615 892Q509 892 432 839T313 697T271 501Q271 392 313 304T432 163T615 111Z" />
<glyph unicode="c" horiz-adv-x="1019" d="M834 251L959 183Q891 88 787 31T560 -26Q422 -26 309 45T128 235T60 500Q60 610 99 705T206 873T366 987T560 1028Q682 1028 786 971T959 818L834 751Q782 817 709 852T560 888Q459 888 377 835T248 693T200 500Q200
395 248 307T379 167T560 114Q642 114 714 152T834 251Z" />
<glyph unicode="d" horiz-adv-x="1203" d="M943 1500H1083V0H943V187Q891 91 801 33T586 -26Q477 -26 382 15T215 128T101 296T60 500Q60 609 101 704T214 872T382 986T586 1027Q710 1027 800 969T943 815V1500ZM587 110Q694 110 771 162T889 304T931 500Q931
610 889 698T770 839T587 891Q481 891 394 839T255 697T203 500Q203 391 256 303T396 162T587 110Z" />
<glyph unicode="e" horiz-adv-x="1117" d="M560 -26Q422 -26 309 45T128 235T60 500Q60 610 99 705T206 873T366 987T560 1028Q671 1028 764 984T925 861T1027 676T1056 447H208Q220 352 268 277T392 159T560 114Q660 114 740 166T870 309L1012 276Q952 143 831
59T560 -26ZM204 560H915Q908 653 859 730T731 854T560 901Q467 901 390 856T264 733T204 560Z" />
<glyph unicode="f" horiz-adv-x="667" d="M327 1261V1000H627V860H327V0H187V860H50V1000H187V1261Q187 1334 222 1393T318 1488T451 1524Q504 1524 553 1503T642 1441L542 1342Q526 1362 502 1373T451 1384Q400 1384 364 1348T327 1261Z" />
<glyph unicode="g" horiz-adv-x="1175" d="M915 1000H1055V-37Q1055 -133 1014 -217T902 -364T741 -464T554 -500Q450 -500 353 -453T185 -326T83 -151L212 -92Q231 -167 283 -227T407 -323T554 -359Q623 -359 687 -334T803 -264T885 -162T915 -37V184Q863 90
775 32T569 -26Q464 -26 372 15T209 128T100 296T60 500Q60 609 99 704T209 872T371 986T569 1027Q686 1027 774 970T915 817V1000ZM570 110Q674 110 749 164T866 307T907 500Q907 607 866 695T748 837T570 891Q468 891 385 839T252 697T203 500Q203 392 253 304T386
163T570 110Z" />
<glyph unicode="h" horiz-adv-x="1072" d="M992 619V0H852V591Q852 673 812 740T705 847T556 887Q475 887 408 847T300 740T260 591V0H120V1500H260V862Q313 938 398 983T583 1028Q696 1028 789 973T937 825T992 619Z" />
<glyph unicode="i" horiz-adv-x="380" d="M120 1000H260V0H120V1000ZM191 1175Q157 1175 134 1197T110 1254Q110 1288 133 1310T191 1333Q224 1333 247 1311T271 1254Q271 1220 248 1198T191 1175Z" />
<glyph unicode="j" horiz-adv-x="441" d="M-80 -500V-360Q-5 -360 54 -327T147 -237T181 -108V1000H321V-108Q321 -216 269 -305T126 -447T-80 -500ZM252 1175Q218 1175 195 1197T171 1254Q171 1288 194 1310T252 1333Q285 1333 308 1311T332 1254Q332 1220 309
1198T252 1175Z" />
<glyph unicode="k" horiz-adv-x="982" d="M901 0H740L460 483L260 244V0H120V1500H260V462L711 1000H894L555 597L901 0Z" />
<glyph unicode="l" horiz-adv-x="380" d="M120 0V1500H260V0H120Z" />
<glyph unicode="m" horiz-adv-x="1777" d="M120 0V1000H260V862Q314 938 398 983T582 1028Q695 1028 789 973T936 825Q989 917 1082 972T1288 1028Q1401 1028 1494 973T1642 825T1697 619V0H1557V588Q1557 668 1518 736T1414 845T1268 887Q1188 887 1123 849T1018
743T979 588V0H839V588Q839 675 800 742T695 848T549 887Q470 887 404 846T299 736T260 588V0H120Z" />
<glyph unicode="n" horiz-adv-x="1072" d="M992 619V0H852V591Q852 673 812 740T705 847T556 887Q475 887 408 847T300 740T260 591V0H120V1000H260V862Q313 938 398 983T583 1028Q696 1028 789 973T937 825T992 619Z" />
<glyph unicode="o" horiz-adv-x="1120" d="M560 -26Q422 -26 309 45T128 235T60 500Q60 610 99 705T206 873T366 987T560 1028Q698 1028 811 957T992 766T1060 500Q1060 391 1021 296T914 129T755 15T560 -26ZM560 114Q662 114 743 167T872 309T920 500Q920 605
872 693T743 835T560 888Q458 888 377 835T248 693T200 500Q200 392 249 305T380 166T560 114Z" />
<glyph unicode="p" horiz-adv-x="1202" d="M260 -500H120V1000H260V813Q312 908 402 967T616 1026Q725 1026 820 985T988 872T1101 704T1142 500Q1142 391 1101 295T988 127T821 13T616 -28Q492 -28 402 31T260 185V-500ZM615 890Q510 890 433 838T313 697T271
500Q271 393 312 304T431 162T615 109Q719 109 806 161T947 301T1000 500Q1000 607 948 695T809 837T615 890Z" />
<glyph unicode="q" horiz-adv-x="1202" d="M586 -28Q441 -28 322 43T131 234T60 500Q60 609 101 704T214 871T382 985T586 1026Q710 1026 800 967T942 813V1000H1082V-500H942V185Q890 90 800 31T586 -28ZM587 890Q481 890 394 837T255 696T203 500Q203 390 255
302T395 161T587 109Q694 109 771 162T889 304T931 500Q931 609 889 697T770 837T587 890Z" />
<glyph unicode="r" horiz-adv-x="715" d="M120 0V1000H260V862Q313 938 398 983T583 1028Q641 1028 695 1013L638 874Q596 887 556 887Q475 887 408 847T300 740T260 591V0H120Z" />
<glyph unicode="s" horiz-adv-x="859" d="M429 -19Q347 -17 269 11T133 87T50 196L171 248Q187 209 230 177T330 125T441 105Q502 105 555 125T641 182T675 271Q675 326 639 357T548 407T435 443Q329 472 248 507T122 596T76 737Q76 828 127 894T262 997T441 1034Q563
1034 663 981T809 840L696 773Q678 814 639 844T551 891T450 909Q386 910 331 891T243 833T209 740Q209 685 242 657T331 611T459 570Q550 541 630 504T759 412T807 273Q807 183 753 116T613 14T429 -19Z" />
<glyph unicode="t" horiz-adv-x="690" d="M631 860H392L391 0H251L252 860H71V1000H252L251 1314H391L392 1000H631V860Z" />
<glyph unicode="u" horiz-adv-x="1032" d="M80 383V1000H220V411Q220 329 260 262T367 155T516 115Q598 115 664 155T771 262T811 411V1000H951L952 0H812L811 140Q758 64 674 19T489 -26Q376 -26 283 29T135 177T80 383Z" />
<glyph unicode="v" horiz-adv-x="1028" d="M603 0H425L60 1003H209L514 164L819 1003H968L603 0Z" />
<glyph unicode="w" horiz-adv-x="1625" d="M539 0H395L60 1000H197L469 194L739 1000H887L1157 194L1427 1000H1565L1230 0H1085L811 814L539 0Z" />
<glyph unicode="x" horiz-adv-x="1065" d="M80 0L446 502L81 1003H254L533 622L811 1003H983L619 502L985 0H812L533 384L253 0H80Z" />
<glyph unicode="y" horiz-adv-x="1033" d="M805 1000H953L406 -500H257L439 0L80 1000H233L509 193L805 1000Z" />
<glyph unicode="z" horiz-adv-x="1014" d="M934 860L278 140H934V0H80V140L736 860H80V1000H934V860Z" />
<glyph unicode="{" horiz-adv-x="803" d="M629 -113Q532 -113 453 -66T326 61T279 237V482Q278 515 254 533T198 564T144 594T120 643Q120 675 143 693T198 724T253 754T279 804V1050Q279 1146 326 1225T452 1352T629 1400H703V1260H629Q572 1260 525 1232T448
1156T419 1050V799Q417 760 403 737T362 694T299 643Q338 610 363 590T403 549T419 487V237Q419 179 447 132T523 56T629 27H703V-113H629Z" />
<glyph unicode="|" horiz-adv-x="420" d="M140 1400H280V-302H140V1400Z" />
<glyph unicode="}" horiz-adv-x="803" d="M100 -113V27H174Q232 27 279 55T355 131T384 237V487Q386 527 400 548T440 590T505 643Q468 674 442 694T401 737T384 799V1050Q384 1108 356 1155T280 1231T174 1260H100V1400H174Q271 1400 350 1353T477 1226T524 1050V804Q526
772 550 755T605 724T659 693T683 643Q683 612 660 595T605 564T550 533T524 482V237Q524 141 477 62T351 -65T174 -113H100Z" />
<glyph unicode="~" horiz-adv-x="1224" d="M897 423Q834 423 760 456T611 532T469 609T351 642Q307 643 275 619T228 555T223 471L87 464Q69 542 99 613T194 731T341 777Q402 777 471 744T610 666T747 589T869 555Q914 555 947 579T994 642T999 724L1136 733Q1156
652 1128 582T1039 467T897 423Z" />
<glyph unicode="&#xa0;" horiz-adv-x="480" />
<glyph unicode="&#xa1;" horiz-adv-x="333" d="M159 1026Q193 1026 216 1003T239 945Q239 912 216 889T159 866Q126 866 103 889T80 945Q80 980 103 1003T159 1026ZM221 580V-400H97V580H221Z" />
<glyph unicode="&#xa2;" horiz-adv-x="1092" d="M526 0V203Q401 217 300 286T139 464T80 702Q80 831 139 939T299 1116T526 1199V1400H633V1199Q753 1189 852 1125T1012 962L891 892Q842 970 758 1017T582 1064Q483 1064 401 1015T270 884T220 702Q220 600 270
518T402 387T582 338Q674 338 758 385T891 510L1012 440Q952 342 853 278T633 203V0H526Z" />
<glyph unicode="&#xa3;" horiz-adv-x="1161" d="M104 0V140Q162 140 216 155T313 199T377 268T391 357Q386 421 362 466T302 547T228 618T156 694T101 791T80 927Q80 1030 119 1120T227 1279T386 1387T579 1426Q683 1426 774 1387T934 1280T1042 1121T1081 927H941Q941
1026 892 1107T761 1237T579 1286Q481 1286 399 1238T269 1108T220 927Q220 845 242 791T301 699T377 629T453 558T512 464T535 325Q535 284 517 247T470 182T412 140H1072V0H104ZM104 449V556H855V449H104Z" />
<glyph unicode="&#xa4;" horiz-adv-x="983" d="M155 288L80 363L204 488Q158 551 143 625T143 773T206 910L80 1038L155 1112L282 986Q343 1032 417 1048T567 1049T703 988L829 1112L903 1038L780 913Q829 851 845 776T846 625T782 486L903 363L829 288L706 410Q642
362 567 346T418 346T279 412L155 288ZM493 445Q563 446 620 480T711 571T746 698Q746 770 712 826T621 916T493 950Q422 950 365 916T275 825T241 698Q241 627 276 570T368 479T493 445Z" />
<glyph unicode="&#xa5;" horiz-adv-x="1229" d="M545 0V193H251V299H545V459H251V565H545V634L73 1400H238L615 787L991 1400H1156L685 634V565H979V459H685V299H979V193H685V0H545Z" />
<glyph unicode="&#xa6;" horiz-adv-x="380" d="M120 448H260V-302H120V448ZM120 1400H260V650H120V1400Z" />
<glyph unicode="&#xa7;" d="M545 -401Q423 -401 323 -348T177 -207L290 -141Q308 -181 347 -211T436 -258T536 -277Q601 -278 655 -259T743 -201T777 -107Q777 -51 745 -20T656 30T527 63Q407 86 315 144T172 292T120 499Q120 583 153 658T246 789T384 873Q273
899 220 955T166 1105Q166 1196 217 1262T352 1365T531 1401Q653 1401 753 1349T899 1207L786 1141Q768 1181 729 1211T641 1258T540 1277Q476 1278 421 1259T333 1201T299 1107Q299 1052 330 1021T418 972T547 938Q671 912 763 856T905 711T956 499Q956 415 922
340T828 209T691 126Q802 101 856 44T910 -105Q910 -196 859 -262T724 -365T545 -401ZM543 205Q621 205 686 245T790 351T829 495Q829 588 787 655T676 759T531 795Q454 795 390 755T286 648T247 499Q247 416 288 350T397 244T543 205Z" />
<glyph unicode="&#xa8;" horiz-adv-x="1278" d="M483 1081Q449 1081 425 1103T400 1160Q400 1193 424 1217T483 1241Q516 1241 539 1217T563 1160Q563 1126 540 1104T483 1081ZM797 1081Q763 1081 739 1103T715 1160Q715 1193 739 1217T797 1241Q830 1241 854
1217T878 1160Q878 1126 854 1104T797 1081Z" />
<glyph unicode="&#xa9;" horiz-adv-x="1803" d="M901 -217Q731 -217 582 -153T320 24T144 286T80 605Q80 775 143 924T320 1186T582 1362T901 1426Q1071 1426 1220 1363T1482 1186T1659 924T1723 605Q1723 435 1659 286T1482 24T1220 -153T901 -217ZM901 -77Q1045
-77 1169 -23T1386 125T1531 343T1583 605Q1583 746 1530 870T1382 1088T1165 1234T901 1286Q759 1285 636 1232T419 1084T273 868T220 605Q220 461 274 337T422 120T640 -25T901 -77ZM1183 356L1308 288Q1240 193 1136 136T909 79Q771 79 658 150T477 340T409
605Q409 715 448 810T555 978T715 1092T909 1133Q1031 1133 1135 1076T1308 923L1183 856Q1131 922 1058 957T909 993Q808 993 726 940T597 798T549 605Q549 500 597 412T728 272T909 219Q991 219 1063 257T1183 356Z" />
<glyph unicode="&#xaa;" horiz-adv-x="1162" d="M942 1000H1082V0H942L937 186Q888 91 800 33T590 -26Q480 -26 384 15T215 130T101 299T60 505Q60 613 100 708T212 875T378 987T581 1028Q706 1028 799 969T947 813L942 1000ZM587 110Q694 110 771 162T889 304T931
500Q931 610 889 698T770 839T587 891Q481 891 394 839T255 697T203 500Q203 391 256 303T396 162T587 110Z" />
<glyph unicode="&#xab;" horiz-adv-x="1020" d="M420 261L120 601L420 939H573L274 601L573 261H420ZM767 261L467 601L767 939H920L621 601L920 261H767Z" />
<glyph unicode="&#xac;" horiz-adv-x="973" d="M753 315V745H80V885H893V315H753Z" />
<glyph unicode="&#xad;" horiz-adv-x="907" d="M147 670H787V530H147V670Z" />
<glyph unicode="&#xae;" horiz-adv-x="995" d="M497 463Q406 463 327 498T187 593T94 733T60 901Q60 990 94 1069T188 1208T327 1303T497 1338Q590 1338 669 1303T809 1207T902 1067T935 901Q935 811 901 732T807 593T668 498T497 463ZM497 573Q588 573 662 617T780
736T825 901Q825 991 781 1065T662 1184T497 1228Q407 1228 333 1184T215 1066T170 901Q170 811 214 737T333 618T497 573ZM375 709V1109H525Q573 1109 606 1074T640 988Q640 949 619 919T563 877L661 709H573L479 869H452V709H375ZM452 945H525Q541 945 552 958T563
988Q563 1007 552 1019T525 1032H452V945Z" />
<glyph unicode="&#xaf;" horiz-adv-x="1200" d="M262 1283H938V1170H262V1283Z" />
<glyph unicode="&#xb0;" horiz-adv-x="705" d="M353 808Q277 808 215 845T117 945T80 1080Q80 1155 116 1216T215 1315T353 1352Q430 1352 491 1315T589 1216T625 1080Q625 1004 588 942T489 844T353 808ZM353 948Q408 948 446 986T485 1080Q485 1136 447 1174T353
1212Q298 1212 259 1174T220 1080Q220 1025 259 987T353 948Z" />
<glyph unicode="&#xb1;" horiz-adv-x="1160" d="M510 333V763H80V903H510V1333H650V903H1080V763H650V333H510ZM80 0V140H1080V0H80Z" />
<glyph unicode="&#xb2;" horiz-adv-x="689" d="M96 818V916Q135 942 189 981T298 1065T392 1159T441 1254Q441 1304 407 1336T322 1368Q272 1368 236 1336T200 1254H96Q96 1316 126 1364T208 1440T322 1468Q414 1468 479 1408T545 1254Q545 1211 520 1166T454
1076T368 992T280 922H541V818H96Z" />
<glyph unicode="&#xb3;" horiz-adv-x="556" d="M279 798Q194 798 133 853T72 994H176Q176 951 206 925T279 898Q321 898 350 924T380 994Q380 1043 343 1075T235 1107V1190Q300 1190 331 1217T362 1287Q362 1322 336 1344T274 1367Q239 1367 213 1345T187 1287H83Q83
1367 139 1417T274 1467Q354 1467 410 1417T466 1287Q466 1245 449 1208T406 1151Q445 1119 464 1083T484 994Q484 908 424 853T279 798Z" />
<glyph unicode="&#xb4;" horiz-adv-x="753" d="M293 1110L373 1398H513L387 1110H293Z" />
<glyph unicode="&#xb5;" horiz-adv-x="1057" d="M80 -432V1000H220V468Q220 370 261 289T374 159T533 110Q620 110 689 158T797 288T837 468V1000H977V0H837V168Q781 77 699 25T515 -27Q421 -27 345 19T220 139V-432H80Z" />
<glyph unicode="&#xb6;" horiz-adv-x="857" d="M420 -302V718Q326 718 249 764T126 887T80 1059Q80 1153 126 1230T249 1354T420 1400H560V-302H420ZM637 -302V1400H777V-302H637Z" />
<glyph unicode="&#xb7;" horiz-adv-x="320" d="M159 520Q126 520 103 543T80 601Q80 633 103 656T159 680Q193 680 216 657T240 601Q240 567 217 544T159 520Z" />
<glyph unicode="&#xb8;" horiz-adv-x="1219" d="M595 -367Q532 -384 475 -351T401 -255L488 -232Q495 -259 519 -273T572 -280Q600 -272 614 -248T621 -195Q614 -167 590 -154T536 -146L441 -159L564 55L642 10L600 -63Q638 -73 667 -102T708 -172Q725 -236 692
-293T595 -367Z" />
<glyph unicode="&#xb9;" horiz-adv-x="423" d="M175 818V1345H96L111 1449H279V818H175Z" />
<glyph unicode="&#xba;" horiz-adv-x="1120" d="M560 -26Q422 -26 309 45T128 235T60 500Q60 610 99 705T206 873T366 987T560 1028Q698 1028 811 957T992 766T1060 500Q1060 391 1021 296T914 129T755 15T560 -26ZM560 114Q662 114 743 167T872 309T920 500Q920
605 872 693T743 835T560 888Q458 888 377 835T248 693T200 500Q200 392 249 305T380 166T560 114Z" />
<glyph unicode="&#xbb;" horiz-adv-x="1040" d="M447 261L746 601L447 939H600L900 601L600 261H447ZM100 261L399 601L100 939H253L553 601L253 261H100Z" />
<glyph unicode="&#xbc;" horiz-adv-x="1554" d="M175 818V1345H96L111 1449H279V818H175ZM180 0L988 1400H1116L308 0H180ZM1236 0V121H969V247L1213 631H1340V225H1410V121H1340V0H1236ZM1075 225H1242V489L1075 225Z" />
<glyph unicode="&#xbd;" horiz-adv-x="1562" d="M175 818V1345H96L111 1449H279V818H175ZM180 0L988 1400H1116L308 0H180ZM969 0V98Q1008 124 1062 163T1171 248T1265 342T1314 437Q1314 487 1280 518T1195 550Q1145 550 1109 519T1073 437H969Q969 499 999 548T1081
625T1195 654Q1257 654 1307 626T1388 548T1418 437Q1418 394 1393 348T1327 258T1241 175T1153 104H1414V0H969Z" />
<glyph unicode="&#xbe;" horiz-adv-x="1687" d="M279 798Q194 798 133 853T72 994H176Q176 951 206 925T279 898Q321 898 350 924T380 994Q380 1043 343 1075T235 1107V1190Q300 1190 331 1217T362 1287Q362 1322 336 1344T274 1367Q239 1367 213 1345T187 1287H83Q83
1367 139 1417T274 1467Q354 1467 410 1417T466 1287Q466 1245 449 1208T406 1151Q445 1119 464 1083T484 994Q484 908 424 853T279 798ZM313 0L1121 1400H1249L441 0H313ZM1369 0V121H1102V247L1346 631H1473V225H1543V121H1473V0H1369ZM1208 225H1375V489L1208
225Z" />
<glyph unicode="&#xbf;" horiz-adv-x="977" d="M482 -427Q371 -427 280 -373T135 -228T80 -26Q80 87 135 183T285 330Q338 359 368 409T398 520H538Q538 423 489 340T351 207Q290 174 255 112T220 -26Q220 -98 255 -157T350 -251T482 -287Q554 -287 613 -252T708
-157T744 -26H884Q884 -136 830 -227T685 -373T482 -427ZM472 866Q438 866 415 889T392 945Q392 980 415 1003T472 1026Q505 1026 528 1003T551 945Q551 912 528 889T472 866Z" />
<glyph unicode="&#xc0;" horiz-adv-x="1353" d="M589 1400H763L1273 0H1124L1015 300H338L229 0H80L589 1400ZM389 440H963L676 1228L389 440ZM483 1798H623L703 1510H610L483 1798Z" />
<glyph unicode="&#xc1;" horiz-adv-x="1353" d="M589 1400H763L1273 0H1124L1015 300H338L229 0H80L589 1400ZM389 440H963L676 1228L389 440ZM642 1510L722 1798H862L736 1510H642Z" />
<glyph unicode="&#xc2;" horiz-adv-x="1353" d="M589 1400H763L1273 0H1124L1015 300H338L229 0H80L589 1400ZM389 440H963L676 1228L389 440ZM753 1798L946 1510H852L676 1713L502 1510H409L600 1798H753Z" />
<glyph unicode="&#xc3;" horiz-adv-x="1353" d="M589 1400H763L1273 0H1124L1015 300H338L229 0H80L589 1400ZM389 440H963L676 1228L389 440ZM831 1531Q794 1531 749 1554T658 1608T573 1660T509 1675Q483 1669 468 1642T463 1577L368 1551Q349 1608 363 1660T419
1744T519 1777Q557 1777 602 1755T693 1705T778 1654T842 1632Q865 1632 877 1649T893 1690T889 1730L984 1760Q1004 1700 989 1648T932 1564T831 1531Z" />
<glyph unicode="&#xc4;" horiz-adv-x="1353" d="M589 1400H763L1273 0H1124L1015 300H338L229 0H80L589 1400ZM389 440H963L676 1228L389 440ZM520 1481Q486 1481 462 1503T437 1560Q437 1593 461 1617T520 1641Q553 1641 576 1617T600 1560Q600 1526 577 1504T520
1481ZM834 1481Q800 1481 776 1503T752 1560Q752 1593 776 1617T834 1641Q867 1641 891 1617T915 1560Q915 1526 891 1504T834 1481Z" />
<glyph unicode="&#xc5;" horiz-adv-x="1353" d="M589 1400H763L1273 0H1124L1015 300H338L229 0H80L589 1400ZM389 440H963L676 1228L389 440ZM676 1495Q610 1495 564 1542T517 1655Q517 1698 538 1734T596 1791T676 1813Q741 1813 787 1767T834 1655Q834 1588
788 1542T676 1495ZM676 1573Q709 1573 732 1597T756 1655Q756 1687 733 1710T676 1733Q642 1733 619 1710T596 1655Q596 1621 619 1597T676 1573Z" />
<glyph unicode="&#xc6;" horiz-adv-x="1619" d="M80 0L589 1400H1519V1260H947V770H1423V630H947V140H1519V0H807V300H338L229 0H80ZM389 440H807V1260H689L389 440Z" />
<glyph unicode="&#xc7;" horiz-adv-x="1418" d="M768 -26Q626 -26 501 30T282 186T134 418T80 700Q80 850 133 982T281 1213T501 1369T768 1426Q938 1426 1081 1347T1318 1137L1194 1070Q1120 1169 1007 1227T768 1286Q653 1286 554 1240T379 1112T262 925T220
700Q220 579 262 473T380 286T555 160T768 114Q898 114 1009 173T1194 329L1318 262Q1224 131 1081 53T768 -26ZM770 -367Q707 -384 650 -351T576 -255L663 -232Q670 -259 694 -273T747 -280Q775 -272 789 -248T796 -195Q789 -167 765 -154T711 -146L616 -159L739
55L817 10L775 -63Q813 -73 842 -102T883 -172Q900 -236 867 -293T770 -367Z" />
<glyph unicode="&#xc8;" horiz-adv-x="1072" d="M120 0V1400H972V1260H260V820H849V680H260V140H972V0H120ZM343 1798H483L563 1510H470L343 1798Z" />
<glyph unicode="&#xc9;" horiz-adv-x="1072" d="M120 0V1400H972V1260H260V820H849V680H260V140H972V0H120ZM502 1510L582 1798H722L596 1510H502Z" />
<glyph unicode="&#xca;" horiz-adv-x="1072" d="M120 0V1400H972V1260H260V820H849V680H260V140H972V0H120ZM613 1798L806 1510H712L536 1713L362 1510H269L460 1798H613Z" />
<glyph unicode="&#xcb;" horiz-adv-x="1072" d="M120 0V1400H972V1260H260V820H849V680H260V140H972V0H120ZM380 1481Q346 1481 322 1503T297 1560Q297 1593 321 1617T380 1641Q413 1641 436 1617T460 1560Q460 1526 437 1504T380 1481ZM694 1481Q660 1481 636
1503T612 1560Q612 1593 636 1617T694 1641Q727 1641 751 1617T775 1560Q775 1526 751 1504T694 1481Z" />
<glyph unicode="&#xcc;" horiz-adv-x="440" d="M150 0V1400H290V0H150ZM27 1798H167L247 1510H154L27 1798Z" />
<glyph unicode="&#xcd;" horiz-adv-x="440" d="M150 0V1400H290V0H150ZM186 1510L266 1798H406L280 1510H186Z" />
<glyph unicode="&#xce;" horiz-adv-x="440" d="M150 0V1400H290V0H150ZM297 1798L490 1510H396L220 1713L46 1510H-47L144 1798H297Z" />
<glyph unicode="&#xcf;" horiz-adv-x="440" d="M150 0V1400H290V0H150ZM64 1481Q30 1481 6 1503T-19 1560Q-19 1593 5 1617T64 1641Q97 1641 120 1617T144 1560Q144 1526 121 1504T64 1481ZM378 1481Q344 1481 320 1503T296 1560Q296 1593 320 1617T378 1641Q411
1641 435 1617T459 1560Q459 1526 435 1504T378 1481Z" />
<glyph unicode="&#xd0;" horiz-adv-x="1455" d="M232 0V680H100V820H232V1400H695Q840 1400 966 1346T1189 1195T1340 972T1395 700Q1395 555 1341 429T1190 206T967 55T695 0H232ZM372 140H695Q813 140 914 184T1092 306T1212 485T1255 700Q1255 817 1211 919T1089
1097T910 1217T695 1260H372V820H717V680H372V140Z" />
<glyph unicode="&#xd1;" horiz-adv-x="1271" d="M120 0V1400H272L1011 253V1400H1151V0H1000L260 1147V0H120ZM790 1531Q753 1531 708 1554T617 1608T532 1660T468 1675Q442 1669 427 1642T422 1577L327 1551Q308 1608 322 1660T378 1744T478 1777Q516 1777 561
1755T652 1705T737 1654T801 1632Q824 1632 836 1649T852 1690T848 1730L943 1760Q963 1700 948 1648T891 1564T790 1531Z" />
<glyph unicode="&#xd2;" horiz-adv-x="1540" d="M770 -26Q628 -26 503 30T283 187T134 418T80 700Q80 850 134 981T283 1213T503 1369T770 1426Q913 1426 1038 1370T1258 1213T1406 982T1460 700Q1460 550 1407 419T1258 187T1038 31T770 -26ZM770 114Q885 114
984 160T1159 288T1277 475T1320 700Q1320 820 1277 926T1159 1113T984 1240T770 1286Q655 1286 556 1240T381 1112T263 925T220 700Q220 579 263 473T381 286T556 160T770 114ZM577 1798H717L797 1510H704L577 1798Z" />
<glyph unicode="&#xd3;" horiz-adv-x="1540" d="M770 -26Q628 -26 503 30T283 187T134 418T80 700Q80 850 134 981T283 1213T503 1369T770 1426Q913 1426 1038 1370T1258 1213T1406 982T1460 700Q1460 550 1407 419T1258 187T1038 31T770 -26ZM770 114Q885 114
984 160T1159 288T1277 475T1320 700Q1320 820 1277 926T1159 1113T984 1240T770 1286Q655 1286 556 1240T381 1112T263 925T220 700Q220 579 263 473T381 286T556 160T770 114ZM736 1510L816 1798H956L830 1510H736Z" />
<glyph unicode="&#xd4;" horiz-adv-x="1540" d="M770 -26Q628 -26 503 30T283 187T134 418T80 700Q80 850 134 981T283 1213T503 1369T770 1426Q913 1426 1038 1370T1258 1213T1406 982T1460 700Q1460 550 1407 419T1258 187T1038 31T770 -26ZM770 114Q885 114
984 160T1159 288T1277 475T1320 700Q1320 820 1277 926T1159 1113T984 1240T770 1286Q655 1286 556 1240T381 1112T263 925T220 700Q220 579 263 473T381 286T556 160T770 114ZM847 1798L1040 1510H946L770 1713L596 1510H503L694 1798H847Z" />
<glyph unicode="&#xd5;" horiz-adv-x="1540" d="M770 -26Q628 -26 503 30T283 187T134 418T80 700Q80 850 134 981T283 1213T503 1369T770 1426Q913 1426 1038 1370T1258 1213T1406 982T1460 700Q1460 550 1407 419T1258 187T1038 31T770 -26ZM770 114Q885 114
984 160T1159 288T1277 475T1320 700Q1320 820 1277 926T1159 1113T984 1240T770 1286Q655 1286 556 1240T381 1112T263 925T220 700Q220 579 263 473T381 286T556 160T770 114ZM925 1531Q888 1531 843 1554T752 1608T667 1660T603 1675Q577 1669 562 1642T557
1577L462 1551Q443 1608 457 1660T513 1744T613 1777Q651 1777 696 1755T787 1705T872 1654T936 1632Q959 1632 971 1649T987 1690T983 1730L1078 1760Q1098 1700 1083 1648T1026 1564T925 1531Z" />
<glyph unicode="&#xd6;" horiz-adv-x="1540" d="M770 -26Q628 -26 503 30T283 187T134 418T80 700Q80 850 134 981T283 1213T503 1369T770 1426Q913 1426 1038 1370T1258 1213T1406 982T1460 700Q1460 550 1407 419T1258 187T1038 31T770 -26ZM770 114Q885 114
984 160T1159 288T1277 475T1320 700Q1320 820 1277 926T1159 1113T984 1240T770 1286Q655 1286 556 1240T381 1112T263 925T220 700Q220 579 263 473T381 286T556 160T770 114ZM614 1481Q580 1481 556 1503T531 1560Q531 1593 555 1617T614 1641Q647 1641 670
1617T694 1560Q694 1526 671 1504T614 1481ZM928 1481Q894 1481 870 1503T846 1560Q846 1593 870 1617T928 1641Q961 1641 985 1617T1009 1560Q1009 1526 985 1504T928 1481Z" />
<glyph unicode="&#xd7;" horiz-adv-x="966" d="M179 197L80 296L383 600L80 904L179 1003L482 699L786 1003L886 904L581 600L886 296L786 197L482 501L179 197Z" />
<glyph unicode="&#xd8;" horiz-adv-x="1540" d="M401 -82L279 -12L357 123Q233 222 157 373T80 700Q80 850 134 981T283 1213T503 1369T770 1426Q851 1426 925 1407T1067 1353L1141 1482L1263 1412L1185 1278Q1310 1180 1385 1029T1460 700Q1460 550 1407 419T1258
187T1038 31T770 -26Q691 -26 617 -7T475 47L401 -82ZM430 251L996 1229Q946 1256 889 1271T770 1286Q655 1286 556 1240T381 1112T263 925T220 700Q220 563 277 446T430 251ZM770 114Q885 114 984 160T1159 288T1277 475T1320 700Q1320 837 1264 954T1112 1151L546
171Q596 144 653 129T770 114Z" />
<glyph unicode="&#xd9;" horiz-adv-x="1326" d="M663 -26Q495 -26 373 56T186 276T120 584V1400H260V584Q260 456 307 349T444 178T663 114Q795 114 884 178T1020 350T1066 584V1400H1206V584Q1206 457 1169 347T1061 152T890 21T663 -26ZM470 1798H610L690 1510H597L470
1798Z" />
<glyph unicode="&#xda;" horiz-adv-x="1326" d="M663 -26Q495 -26 373 56T186 276T120 584V1400H260V584Q260 456 307 349T444 178T663 114Q795 114 884 178T1020 350T1066 584V1400H1206V584Q1206 457 1169 347T1061 152T890 21T663 -26ZM629 1510L709 1798H849L723
1510H629Z" />
<glyph unicode="&#xdb;" horiz-adv-x="1326" d="M663 -26Q495 -26 373 56T186 276T120 584V1400H260V584Q260 456 307 349T444 178T663 114Q795 114 884 178T1020 350T1066 584V1400H1206V584Q1206 457 1169 347T1061 152T890 21T663 -26ZM740 1798L933 1510H839L663
1713L489 1510H396L587 1798H740Z" />
<glyph unicode="&#xdc;" horiz-adv-x="1326" d="M663 -26Q495 -26 373 56T186 276T120 584V1400H260V584Q260 456 307 349T444 178T663 114Q795 114 884 178T1020 350T1066 584V1400H1206V584Q1206 457 1169 347T1061 152T890 21T663 -26ZM507 1481Q473 1481 449
1503T424 1560Q424 1593 448 1617T507 1641Q540 1641 563 1617T587 1560Q587 1526 564 1504T507 1481ZM821 1481Q787 1481 763 1503T739 1560Q739 1593 763 1617T821 1641Q854 1641 878 1617T902 1560Q902 1526 878 1504T821 1481Z" />
<glyph unicode="&#xdd;" horiz-adv-x="1203" d="M978 1400H1143L671 634V0H531V634L60 1400H225L601 787L978 1400ZM567 1510L647 1798H787L661 1510H567Z" />
<glyph unicode="&#xde;" horiz-adv-x="1027" d="M120 0V1400H260V1109H568Q680 1109 770 1055T913 908T967 700Q967 584 913 492T768 345T568 291H260V0H120ZM260 431H557Q631 431 692 467T790 565T827 707Q827 786 791 848T693 947T557 984H260V431Z" />
<glyph unicode="&#xdf;" horiz-adv-x="1069" d="M120 0V953Q120 1045 154 1126T250 1268T392 1365T566 1400Q669 1400 752 1349T885 1212T935 1018Q935 958 916 900T861 794T771 717Q831 703 875 669T950 588T994 487T1009 375Q1009 270 958 185T820 50T628 0H554L527
125H617Q690 125 749 160T844 253T880 383Q880 454 845 511T750 604T617 639L527 641V761L554 763Q620 765 675 799T762 890T795 1018Q795 1089 763 1147T675 1240T554 1275Q473 1275 406 1235T300 1128T260 979V0H120Z" />
<glyph unicode="&#xe0;" horiz-adv-x="1162" d="M942 1000H1082V0H942L937 186Q888 91 800 33T590 -26Q480 -26 384 15T215 130T101 299T60 505Q60 613 100 708T212 875T378 987T581 1028Q706 1028 799 969T947 813L942 1000ZM587 110Q694 110 771 162T889 304T931
500Q931 610 889 698T770 839T587 891Q481 891 394 839T255 697T203 500Q203 391 256 303T396 162T587 110ZM403 1398H543L623 1110H530L403 1398Z" />
<glyph unicode="&#xe1;" horiz-adv-x="1162" d="M942 1000H1082V0H942L937 186Q888 91 800 33T590 -26Q480 -26 384 15T215 130T101 299T60 505Q60 613 100 708T212 875T378 987T581 1028Q706 1028 799 969T947 813L942 1000ZM587 110Q694 110 771 162T889 304T931
500Q931 610 889 698T770 839T587 891Q481 891 394 839T255 697T203 500Q203 391 256 303T396 162T587 110ZM562 1110L642 1398H782L656 1110H562Z" />
<glyph unicode="&#xe2;" horiz-adv-x="1162" d="M942 1000H1082V0H942L937 186Q888 91 800 33T590 -26Q480 -26 384 15T215 130T101 299T60 505Q60 613 100 708T212 875T378 987T581 1028Q706 1028 799 969T947 813L942 1000ZM587 110Q694 110 771 162T889 304T931
500Q931 610 889 698T770 839T587 891Q481 891 394 839T255 697T203 500Q203 391 256 303T396 162T587 110ZM673 1398L866 1110H772L596 1313L422 1110H329L520 1398H673Z" />
<glyph unicode="&#xe3;" horiz-adv-x="1162" d="M942 1000H1082V0H942L937 186Q888 91 800 33T590 -26Q480 -26 384 15T215 130T101 299T60 505Q60 613 100 708T212 875T378 987T581 1028Q706 1028 799 969T947 813L942 1000ZM587 110Q694 110 771 162T889 304T931
500Q931 610 889 698T770 839T587 891Q481 891 394 839T255 697T203 500Q203 391 256 303T396 162T587 110ZM1007 1131Q970 1131 925 1154T834 1208T749 1260T685 1275Q659 1269 644 1242T639 1177L544 1151Q525 1208 539 1260T595 1344T695 1377Q733 1377 778
1355T869 1305T954 1254T1018 1232Q1041 1232 1053 1249T1069 1290T1065 1330L1160 1360Q1180 1300 1165 1248T1108 1164T1007 1131Z" />
<glyph unicode="&#xe4;" horiz-adv-x="1162" d="M942 1000H1082V0H942L937 186Q888 91 800 33T590 -26Q480 -26 384 15T215 130T101 299T60 505Q60 613 100 708T212 875T378 987T581 1028Q706 1028 799 969T947 813L942 1000ZM587 110Q694 110 771 162T889 304T931
500Q931 610 889 698T770 839T587 891Q481 891 394 839T255 697T203 500Q203 391 256 303T396 162T587 110ZM696 1081Q662 1081 638 1103T613 1160Q613 1193 637 1217T696 1241Q729 1241 752 1217T776 1160Q776 1126 753 1104T696 1081ZM1010 1081Q976 1081 952
1103T928 1160Q928 1193 952 1217T1010 1241Q1043 1241 1067 1217T1091 1160Q1091 1126 1067 1104T1010 1081Z" />
<glyph unicode="&#xe5;" horiz-adv-x="1162" d="M942 1000H1082V0H942L937 186Q888 91 800 33T590 -26Q480 -26 384 15T215 130T101 299T60 505Q60 613 100 708T212 875T378 987T581 1028Q706 1028 799 969T947 813L942 1000ZM587 110Q694 110 771 162T889 304T931
500Q931 610 889 698T770 839T587 891Q481 891 394 839T255 697T203 500Q203 391 256 303T396 162T587 110ZM596 1095Q530 1095 484 1142T437 1255Q437 1298 458 1334T516 1391T596 1413Q661 1413 707 1367T754 1255Q754 1188 708 1142T596 1095ZM596 1173Q629
1173 652 1197T676 1255Q676 1287 653 1310T596 1333Q562 1333 539 1310T516 1255Q516 1221 539 1197T596 1173Z" />
<glyph unicode="&#xe6;" horiz-adv-x="1776" d="M333 -25Q246 -25 178 12T70 116T30 266Q30 345 66 412T170 520T328 561H716Q715 650 676 724T565 843T395 888Q320 888 251 856L175 974Q227 1001 282 1014T393 1028Q526 1028 634 959T803 773Q844 849 907 906T1051
996T1220 1028Q1332 1028 1425 984T1585 861T1686 676T1715 447H868Q879 352 928 277T1053 158T1221 114Q1320 114 1400 166T1530 309L1672 276Q1612 143 1491 59T1220 -26Q1124 -26 1039 10T888 112T783 262Q744 179 676 114T520 12T333 -25ZM333 102Q446 102
533 161T667 311Q701 374 715 448H328Q250 448 204 398T157 274Q157 207 202 155T333 102ZM864 560H1574Q1567 653 1518 730T1391 854T1220 901Q1127 901 1050 856T923 733T864 560Z" />
<glyph unicode="&#xe7;" horiz-adv-x="1019" d="M834 251L959 183Q891 88 787 31T560 -26Q422 -26 309 45T128 235T60 500Q60 610 99 705T206 873T366 987T560 1028Q682 1028 786 971T959 818L834 751Q782 817 709 852T560 888Q459 888 377 835T248 693T200 500Q200
395 248 307T379 167T560 114Q642 114 714 152T834 251ZM818 -367Q755 -384 698 -351T624 -255L711 -232Q718 -259 742 -273T795 -280Q823 -272 837 -248T844 -195Q837 -167 813 -154T759 -146L664 -159L787 55L865 10L823 -63Q861 -73 890 -102T931 -172Q948 -236
915 -293T818 -367Z" />
<glyph unicode="&#xe8;" horiz-adv-x="1117" d="M560 -26Q422 -26 309 45T128 235T60 500Q60 610 99 705T206 873T366 987T560 1028Q671 1028 764 984T925 861T1027 676T1056 447H208Q220 352 268 277T392 159T560 114Q660 114 740 166T870 309L1012 276Q952 143
831 59T560 -26ZM204 560H915Q908 653 859 730T731 854T560 901Q467 901 390 856T264 733T204 560ZM366 1398H506L586 1110H493L366 1398Z" />
<glyph unicode="&#xe9;" horiz-adv-x="1117" d="M560 -26Q422 -26 309 45T128 235T60 500Q60 610 99 705T206 873T366 987T560 1028Q671 1028 764 984T925 861T1027 676T1056 447H208Q220 352 268 277T392 159T560 114Q660 114 740 166T870 309L1012 276Q952 143
831 59T560 -26ZM204 560H915Q908 653 859 730T731 854T560 901Q467 901 390 856T264 733T204 560ZM525 1110L605 1398H745L619 1110H525Z" />
<glyph unicode="&#xea;" horiz-adv-x="1117" d="M560 -26Q422 -26 309 45T128 235T60 500Q60 610 99 705T206 873T366 987T560 1028Q671 1028 764 984T925 861T1027 676T1056 447H208Q220 352 268 277T392 159T560 114Q660 114 740 166T870 309L1012 276Q952 143
831 59T560 -26ZM204 560H915Q908 653 859 730T731 854T560 901Q467 901 390 856T264 733T204 560ZM636 1398L829 1110H735L559 1313L385 1110H292L483 1398H636Z" />
<glyph unicode="&#xeb;" horiz-adv-x="1117" d="M560 -26Q422 -26 309 45T128 235T60 500Q60 610 99 705T206 873T366 987T560 1028Q671 1028 764 984T925 861T1027 676T1056 447H208Q220 352 268 277T392 159T560 114Q660 114 740 166T870 309L1012 276Q952 143
831 59T560 -26ZM204 560H915Q908 653 859 730T731 854T560 901Q467 901 390 856T264 733T204 560ZM659 1081Q625 1081 601 1103T576 1160Q576 1193 600 1217T659 1241Q692 1241 715 1217T739 1160Q739 1126 716 1104T659 1081ZM973 1081Q939 1081 915 1103T891
1160Q891 1193 915 1217T973 1241Q1006 1241 1030 1217T1054 1160Q1054 1126 1030 1104T973 1081Z" />
<glyph unicode="&#xec;" horiz-adv-x="380" d="M120 1000H260V0H120V1000ZM-3 1398H137L217 1110H124L-3 1398Z" />
<glyph unicode="&#xed;" horiz-adv-x="380" d="M120 1000H260V0H120V1000ZM156 1110L236 1398H376L250 1110H156Z" />
<glyph unicode="&#xee;" horiz-adv-x="380" d="M120 1000H260V0H120V1000ZM523 1398L716 1110H622L446 1313L272 1110H179L370 1398H523Z" />
<glyph unicode="&#xef;" horiz-adv-x="380" d="M120 1000H260V0H120V1000ZM34 1081Q0 1081 -24 1103T-49 1160Q-49 1193 -25 1217T34 1241Q67 1241 90 1217T114 1160Q114 1126 91 1104T34 1081ZM348 1081Q314 1081 290 1103T266 1160Q266 1193 290 1217T348 1241Q381
1241 405 1217T429 1160Q429 1126 405 1104T348 1081Z" />
<glyph unicode="&#xf0;" horiz-adv-x="1125" d="M432 1053L355 1129L795 1559L869 1483L432 1053ZM583 -26Q445 -26 331 42T148 224T80 476Q80 580 119 671T227 832T388 940T583 979Q678 979 758 937T891 824Q868 923 823 1018T710 1191T553 1313T353 1359V1499Q511
1499 644 1422T875 1208T1029 895T1085 519Q1085 359 1021 236T844 44T583 -26ZM583 114Q685 114 767 164T898 296T946 476Q946 576 898 658T767 789T583 839Q481 839 399 789T269 657T220 476Q220 378 268 296T399 164T583 114Z" />
<glyph unicode="&#xf1;" horiz-adv-x="1072" d="M992 619V0H852V591Q852 673 812 740T705 847T556 887Q475 887 408 847T300 740T260 591V0H120V1000H260V862Q313 938 398 983T583 1028Q696 1028 789 973T937 825T992 619ZM974 1131Q937 1131 892 1154T801 1208T716
1260T652 1275Q626 1269 611 1242T606 1177L511 1151Q492 1208 506 1260T562 1344T662 1377Q700 1377 745 1355T836 1305T921 1254T985 1232Q1008 1232 1020 1249T1036 1290T1032 1330L1127 1360Q1147 1300 1132 1248T1075 1164T974 1131Z" />
<glyph unicode="&#xf2;" horiz-adv-x="1120" d="M560 -26Q422 -26 309 45T128 235T60 500Q60 610 99 705T206 873T366 987T560 1028Q698 1028 811 957T992 766T1060 500Q1060 391 1021 296T914 129T755 15T560 -26ZM560 114Q662 114 743 167T872 309T920 500Q920
605 872 693T743 835T560 888Q458 888 377 835T248 693T200 500Q200 392 249 305T380 166T560 114ZM367 1398H507L587 1110H494L367 1398Z" />
<glyph unicode="&#xf3;" horiz-adv-x="1120" d="M560 -26Q422 -26 309 45T128 235T60 500Q60 610 99 705T206 873T366 987T560 1028Q698 1028 811 957T992 766T1060 500Q1060 391 1021 296T914 129T755 15T560 -26ZM560 114Q662 114 743 167T872 309T920 500Q920
605 872 693T743 835T560 888Q458 888 377 835T248 693T200 500Q200 392 249 305T380 166T560 114ZM526 1110L606 1398H746L620 1110H526Z" />
<glyph unicode="&#xf4;" horiz-adv-x="1120" d="M560 -26Q422 -26 309 45T128 235T60 500Q60 610 99 705T206 873T366 987T560 1028Q698 1028 811 957T992 766T1060 500Q1060 391 1021 296T914 129T755 15T560 -26ZM560 114Q662 114 743 167T872 309T920 500Q920
605 872 693T743 835T560 888Q458 888 377 835T248 693T200 500Q200 392 249 305T380 166T560 114ZM637 1398L830 1110H736L560 1313L386 1110H293L484 1398H637Z" />
<glyph unicode="&#xf5;" horiz-adv-x="1120" d="M560 -26Q422 -26 309 45T128 235T60 500Q60 610 99 705T206 873T366 987T560 1028Q698 1028 811 957T992 766T1060 500Q1060 391 1021 296T914 129T755 15T560 -26ZM560 114Q662 114 743 167T872 309T920 500Q920
605 872 693T743 835T560 888Q458 888 377 835T248 693T200 500Q200 392 249 305T380 166T560 114ZM971 1131Q934 1131 889 1154T798 1208T713 1260T649 1275Q623 1269 608 1242T603 1177L508 1151Q489 1208 503 1260T559 1344T659 1377Q697 1377 742 1355T833
1305T918 1254T982 1232Q1005 1232 1017 1249T1033 1290T1029 1330L1124 1360Q1144 1300 1129 1248T1072 1164T971 1131Z" />
<glyph unicode="&#xf6;" horiz-adv-x="1120" d="M560 -26Q422 -26 309 45T128 235T60 500Q60 610 99 705T206 873T366 987T560 1028Q698 1028 811 957T992 766T1060 500Q1060 391 1021 296T914 129T755 15T560 -26ZM560 114Q662 114 743 167T872 309T920 500Q920
605 872 693T743 835T560 888Q458 888 377 835T248 693T200 500Q200 392 249 305T380 166T560 114ZM660 1081Q626 1081 602 1103T577 1160Q577 1193 601 1217T660 1241Q693 1241 716 1217T740 1160Q740 1126 717 1104T660 1081ZM974 1081Q940 1081 916 1103T892
1160Q892 1193 916 1217T974 1241Q1007 1241 1031 1217T1055 1160Q1055 1126 1031 1104T974 1081Z" />
<glyph unicode="&#xf7;" horiz-adv-x="1160" d="M80 530V670H1080V530H80ZM580 1066Q621 1066 651 1034T682 961Q682 919 652 889T580 858Q535 858 506 888T477 961Q477 1002 506 1034T580 1066ZM580 341Q621 341 653 309T685 236Q685 193 653 164T580 134Q535
134 506 163T477 236Q477 277 506 309T580 341Z" />
<glyph unicode="&#xf8;" horiz-adv-x="1120" d="M308 -55L204 5L253 88Q165 160 113 267T60 500Q60 610 99 705T206 873T366 987T560 1028Q616 1028 668 1016T766 980L813 1059L917 999L869 915Q956 843 1008 736T1060 500Q1060 391 1021 296T914 129T755 15T560
-26Q505 -26 453 -13T353 23L308 -55ZM322 208L701 866Q611 907 521 894T357 826T237 685T192 494Q192 406 227 332T322 208ZM419 137Q512 96 602 109T766 177T884 317T928 506Q928 594 893 669T799 795L419 137Z" />
<glyph unicode="&#xf9;" horiz-adv-x="1032" d="M80 383V1000H220V411Q220 329 260 262T367 155T516 115Q598 115 664 155T771 262T811 411V1000H951L952 0H812L811 140Q758 64 674 19T489 -26Q376 -26 283 29T135 177T80 383ZM336 1399H476L556 1111H463L336 1399Z" />
<glyph unicode="&#xfa;" horiz-adv-x="1032" d="M80 383V1000H220V411Q220 329 260 262T367 155T516 115Q598 115 664 155T771 262T811 411V1000H951L952 0H812L811 140Q758 64 674 19T489 -26Q376 -26 283 29T135 177T80 383ZM495 1111L575 1399H715L589 1111H495Z" />
<glyph unicode="&#xfb;" horiz-adv-x="1032" d="M80 383V1000H220V411Q220 329 260 262T367 155T516 115Q598 115 664 155T771 262T811 411V1000H951L952 0H812L811 140Q758 64 674 19T489 -26Q376 -26 283 29T135 177T80 383ZM606 1399L799 1111H705L529 1314L355
1111H262L453 1399H606Z" />
<glyph unicode="&#xfc;" horiz-adv-x="1032" d="M80 383V1000H220V411Q220 329 260 262T367 155T516 115Q598 115 664 155T771 262T811 411V1000H951L952 0H812L811 140Q758 64 674 19T489 -26Q376 -26 283 29T135 177T80 383ZM629 1082Q595 1082 571 1104T546
1161Q546 1194 570 1218T629 1242Q662 1242 685 1218T709 1161Q709 1127 686 1105T629 1082ZM943 1082Q909 1082 885 1104T861 1161Q861 1194 885 1218T943 1242Q976 1242 1000 1218T1024 1161Q1024 1127 1000 1105T943 1082Z" />
<glyph unicode="&#xfd;" horiz-adv-x="1033" d="M805 1000H953L406 -500H257L439 0L80 1000H233L509 193L805 1000ZM482 1110L562 1398H702L576 1110H482Z" />
<glyph unicode="&#xfe;" horiz-adv-x="1202" d="M120 -500V1400H260V813Q312 908 402 967T616 1026Q725 1026 820 985T988 872T1101 704T1142 500Q1142 391 1101 295T988 127T821 13T616 -28Q492 -28 402 31T260 185V-500H120ZM615 109Q719 109 806 161T947 301T1000
500Q1000 607 948 695T809 837T615 890Q510 890 433 838T313 697T271 500Q271 393 312 304T431 162T615 109Z" />
<glyph unicode="&#xff;" horiz-adv-x="1033" d="M805 1000H953L406 -500H257L439 0L80 1000H233L509 193L805 1000ZM616 1081Q582 1081 558 1103T533 1160Q533 1193 557 1217T616 1241Q649 1241 672 1217T696 1160Q696 1126 673 1104T616 1081ZM930 1081Q896 1081
872 1103T848 1160Q848 1193 872 1217T930 1241Q963 1241 987 1217T1011 1160Q1011 1126 987 1104T930 1081Z" />
<glyph unicode="&#x2013;" horiz-adv-x="1240" d="M120 670H1120V530H120V670Z" />
<glyph unicode="&#x2014;" horiz-adv-x="2040" d="M120 670H1920V530H120V670Z" />
<glyph unicode="&#x2018;" horiz-adv-x="302" d="M60 878L169 1400H262L200 878H60Z" />
<glyph unicode="&#x2019;" horiz-adv-x="302" d="M40 878L102 1400H242L133 878H40Z" />
<glyph unicode="&#x201a;" horiz-adv-x="335" d="M309 -112L371 226H511L402 -112H309Z" />
<glyph unicode="&#x201c;" horiz-adv-x="648" d="M120 878L229 1400H322L260 878H120ZM406 882L515 1404H608L546 882H406Z" />
<glyph unicode="&#x201d;" horiz-adv-x="648" d="M40 878L102 1400H242L133 878H40ZM326 878L388 1400H528L419 878H326Z" />
<glyph unicode="&#x201e;" horiz-adv-x="609" d="M309 -112L371 226H511L402 -112H309ZM327 -112L389 226H529L420 -112H327Z" />
<glyph unicode="&#x2022;" horiz-adv-x="373" d="M185 493Q142 493 111 524T80 601Q80 645 111 676T185 707Q231 707 262 676T293 601Q293 555 262 524T185 493Z" />
<glyph unicode="&#x2039;" horiz-adv-x="673" d="M420 261L120 601L420 939H573L274 601L573 261H420Z" />
<glyph unicode="&#x203a;" horiz-adv-x="673" d="M100 261L399 601L100 939H253L553 601L253 261H100Z" />
</font>
</defs>
</svg>
